Ffmpeg Subrip

Books about FFmpeg. You could search for these via traditional means or give opensubtitles. Includes a full-featured universal video player (mplayer) supporting VOB and text subtitles, with choice of fonts , font sizes and international text encodings including Japanese, Chinese, Russian, Greek and more. FFmpeg(强烈推荐)或 Libav(可选) RTMPDump. I decided to use ffmpeg command line for this instead, it works fine. Subtitle Edit Overview. Way 2: How to Use Handbrake to Attach Soft Subtitle to Movie Videos. Don’t expect too much to it. -newsubtitle Add a new subtitle stream to the current output stream. Aki készített már dvdről subripet, az belefuthatott abba a problémába, hogy a Subrip beépített OCR-e (karakterfelismerője) nem volt képes a már egyszer felismertetett karaktereket használni és az adott karaktert. This does not work without compiling with ffmpeg. Ffmpeg tutorial for adding or muxing srt subrip subtitle to mp4 video using mov_text subtitle codec. Dieser kann anhand der Stream-ID mit ffmpeg extrahiert und anschließend im Texteditor bearbeitet werden:. MKV -c copy ConcatenatedVideo. a) HARDWARE ACCELERATION – Hardware acceleration can be applied to more videos with the help of new HW+ decoder. the report created by ffmpeg sub_bad_colors_ffplay. • 64-bit encoding whenever possible for optimal encoding speed. --hwdec=v4l2m2m-copy (or --hwdec=mmal-copy) does the job and makes use of hardware acceleration. We heard you and are excited to bring you the Private Folder feature. SubRip is also the name of the widely used and broadly compatible subtitle text file format created by this software. Using ffmpeg -codecs, I can confirm that ffmpeg should be able to encode subrip subtitles. The first one, with RagnerBG procedure you install everything you want manually, appart from ffmpeg, the second procedure is about installing the pure ffmpeg. 000字幕,这是一个字幕文件然后,就可以执行叠加语句:E:\\ffmpeg\\bin>ffmpeg. 2 since Oct. SRT/Subrip or ASS/SSA. The user is able to select a list of preferred encodings in order to load the localized subtitle files. quick and so, so easy. 將 MP4 檔內的 mov_text 字幕轉換 subrip 格式: ffmpeg -i input. Using optical character recognition, SubRip can extract from live video, video files and DVDs, then record the extracted subtitles and timings as a Subrip format text file. The VobSub subtitle format OGMRIP_FORMAT_COPY. My question is how to use it - I've tried almost everything. 1 - libXML2 2. Open the video with VLC. Therefore you need the SRT file (SubRip Subtitle File) which contains the texts. This com­mand will grab the default sub­ti­tle track and export it as a srt file: ffmpeg -i input_file. -slang code Set the ISO 639 language code (3 letters) of the current subtitle stream. FFmpeg and its photosensitivity filter are not making any medical claims. SUP files are most commonly found on DVDs and Blu-ray discs. Genotype Query Tools (GQT) is command line software and a C API for indexing and querying large-scale genotype data sets like those produced by 1000 Genomes, the UK100K, and forthcoming datasets involving millions of genomes. sh options 4 and 5, but it might work as a new install using option 1, that is my next test!). 04 is by using the snappy packaging system. It can be used as an authoring software for new subtitles or as a tool to convert, transform, correct and refine existing subtitles. AppleTV6,2 with TVOS 12. The optional timeout argument specifies how long should the operation be blocked in case ffmpeg gets stuck and doesn’t report back. Publication date 2019-01-20 Usage SUBRIP download. ac3 -map 0: 2-c copy audio2. Note that this filter is not FDA approved, nor are we medical professionals. OGMRIP_FORMAT_SUBRIP_0_9. Video Converter is a Python module for converting video files from one format and codec to another. FFmpeg supports these formats since May 8 2012 and Jan 28 2012 (commits f9ca1ac7 and 143a5c55) Libav added them Oct 12 2012 with incompatible values (commit 6d5600e85)planar YUV 4:2:2 24bpp, (1 Cr & Cb sample per 2x1 Y & A samples). I am not aware of any app that will do the whole process in one go, for Linux/UNIX. Once conversion is completed, you can view the subtitles or download them to your computer. Wma8: Gets the name for Windows Media Audio 8. 2 on MacOS Mojave - Copyright (c) 2000-2018 the FFmpeg developers )…. Add -c:s srt to save subtitles in desirable format, e. 9: - Indeo 4 decoder - SMJPEG demuxer - y41p Brooktree Uncompressed 4:1:1 12-bit encoder and decoder - openal input device added - boxblur filter added - BWF muxer - Flash Screen Video 2 decoder - lavfi input device added - added avconv, which is almost the. IEC958) DE srt SubRip subtitle format E svcd MPEG-2 PS. ffmpeg -i video. srt:100:00:00. How to extract the subtitles, so called PGS subtitles, from a Blu-ray. This doesn’t limit the total conversion time, just the amount of time Converter will wait for each update from ffmpeg. What were the Ethiopians doing in Xerxes' army? Is "vegetable base" a common term in English? Best shape for a necromancer's undead mini. srt), is one of the most common subtitle/caption file formats used. Subtitles I want to convert to some other format, like subrip. It supports the most obscure ancient formats up to the cutting edge. 0 版本很近了,结果又被耍了,来了个 0. exe -i mXC3xGZWo_M. wm_ffmpeg合并字幕. Except when it didn't - the behavior was a bit inconsistent. 000字幕,这是一个字幕文件然后,就可以执行叠加语句:E:\\ffmpeg\\bin>ffmpeg. mp4 -i subtitles. The SubRip version 0. srt Untertitel zu ASS für den folgenden Befehl umwandeln: ffmpeg -i input1. Use the current Audacity and add the optional FFmpeg library to your computer. mp4 > Stream #0:2(eng): Subtitle: subrip (default) > Metadata: > title : English > Stream #0:3(eng): Subtitle: subrip You cannot mux subrip into mp4, this is not a problem that can be solved in FFmpeg. 0 MB) - added by bakhshian 8 years ago. When processing manually: [aac @ 0x58dc5a0] Too many bits 13653. com offers free software downloads for Windows, Mac, iOS and Android computers and mobile devices. srt ' track 0: Using the output module for the format ' text subtitles '. Key features: - Supported formats: SubRip (. # encode video only, about 50fps (max) $ ffmpeg -i big_buck_bunny_720p_h264. FFMPEG make Video Lyrics using JPG MP3 SRT File # ffmpeg -loop 1 -y -i test. APK certificate fingerprints SHA-1. ffmpeg -codecs; ffmpeg -formats; ffmpeg speed up video and audio; Base64; Complete List of MIME TYPE; BASE64 data URIS & HTML media; test; password; How to download bbcvideo content; Whats is fps; ffmpeg encoding H. Using ffmpeg -i video. So I take it what you support is what ffmpeg supports natively, no more, no less. Convert to MP4 with FFMPEG for Windows by SCM Staff and Support. Internet Download Man 6. ffmpeg -scodec srt -i source. avi, then your subtitle file will be named as Zootopia. I’ve started converting my collection with MakeMKV and am now realizing that some Blu-ray’s have a VC-1 codec and the DVD’s are MPEG2, both of which have to be transcoded and cause buffering on my Roku 4. Adjusting poorly synchronized subtitles is no longer a problem. = Mac OS version available. Aegisub's native subtitle format is Advanced SubStation Alpha text, which supports subtitle positioning and styling. my PMS *can* transcode+burn subs without too much of a resource punishment, but the. Ffmpeg Convert Mkv To Mp4 With Subtitles of input video using the libass library. 18 * License along with FFmpeg; if not, write to the Free Software 19 * Foundation, Inc. Containers are Files that can contain audio and/or video. All the MKV have a subtitle inside but I have a srt file too of all my files in case I have to mux the set again so this is not a porblem if someone know how to mux with an external srt. Click the "Pencil" icon on the video task bar to open video editing panel. Open subtitles - Opens an existing subtitles file or imports subtitles from a Matroska container file. srt -codec copy out. What were the Ethiopians doing in Xerxes' army? Is "vegetable base" a common term in English? Best shape for a necromancer's undead mini. Stack Exchange network consists of 177 Q&A communities including Stack Overflow, the largest, most trusted online community for developers to learn, share their knowledge, and build their careers. Key features: - Supported formats: SubRip (. I am using FFMPEG to hard code subs into a video. If the subtitle is a separate file called subtitle. Configure the Apple TV to pass-thru Dolby Digital 5. mkv -f webvtt outfile or implied by file extension: ffmpeg -i my_file. ffmpeg -loop 1 -i image. el7_0 @base libvpx-devel. mkv ffmpeg -i input. MTCVideoSlave (MIDI Time Code Video Slave) is a video player which syncs the video playback to MIDI time code. 565 T:6102544384 NOTICE: Running on Apple Inc. This website uses cookies to improve your experience. Emby uses a newer version ffmpeg which is why it doesn’t have the issue. el) and the # ee alias (in my. vtt or one subtitle type file to another: ffmpeg -i my_file. 24/7/365 Support; DE srt SubRip subtitle format E svcd MPEG-2 PS format (VOB) DE swf Flash format D thp THP D tiertexseq Tiertex Limited SEQ format. Команда для запуска в терминале: ffmpeg -i INITIAL_VIDEO. codecs ffmpeg - Free download as Text File (. ffmpeg -f concat -safe 0 -i mp4files. We heard you and are excited to bring you the Private Folder feature. srt) SubRip is the native subtitle format of the SubRip program. Using ffmpeg -i video. srt), is one of the most common subtitle/caption file formats used. SRT2CAPXML is a command-line console application that can convert an SRT file to Captionate XML file, which can be imported by Captionate. It encodes to MPEG-4 (DivX/Xvid), one of the libavcodec codecs and PCM/MP3/VBRMP3 audio in 1, 2 or 3 passes. How to extract the subtitles, so called PGS subtitles, from a Blu-ray. 4 doesn't allow apps to write on the SD Card. But in case you need a list:. 100 File formats: D. , 51 Franklin Street, Fifth Floor, Boston, MA 02110-1301 USA 20 */. Dieser kann anhand der Stream-ID mit ffmpeg extrahiert und anschließend im Texteditor bearbeitet werden:. It uses theFFmpegmultimedia framework for actual file processing, and adds an easy-to-use API for probing and converting media files on top of it. mp4 -i subtitles. srt) and SubStation Alpha. Building ffmpeg with gnutls support is not a requirement per se on Windows, as ffmpeg will use Windows built-in APIs to perform cryptography. a) HARDWARE ACCELERATION – Hardware acceleration can be applied to more videos with the help of new HW+ decoder. FFmpeg extension The FFmpeg extension supports decoding a variety of different audio sample formats. "The Elder Scrolls IV: Oblivion" (commonly referred to as just "Oblivion") is an immersive, open world action RPG. So: ffmpeg -newsubtitle subtitles. mov but dont work Thanks. Press question mark to learn the rest of the keyboard shortcuts. SubViewer (1 and 2), MicroDVD, MPL2 and Spruce DVD Maestro file formats, although it is easy to extend it to support other file types. DCP Builder User's Guide - Free download as PDF File (. It should now be a bit more complete than the official features page on VideoLAN website. Universal Media Server 3. mkv Then will see these stream lines Stream #0:0(eng): Video: h264 (High), yuv420p, 1280x536, SAR 67:68 DAR 40:17, 23. It was developed by Spruce Technologies and known as “Spruce Subtitle File. vframes 定时截图固定时间点截取一张图片ffmpeg -i input. Extract EIA_608 closed caption to srt. 37 Build 15. mp4 transcoder. 《FFmpeg Basics》中文版-14-元数据和字幕 写在前面. FFmpeg can eas­i­ly extract embed­ded sub­ti­tles from videos. Then lead to "Subtitle" tab and click "…" icon to import SRT, SSA/ASS from a file browse window. Supported Formats Supported File Format Encoding Decoding. srt, and contain formatted lines of plain text in groups separated by a blank line. So: ffmpeg -newsubtitle subtitles. If you like apk for pc you can download Bobby Movie. Note that this filter is not FDA approved, nor are we medical professionals. So if ffmpeg supported outputing segments with webvtt, then it would be trivial to implement into MB3 ? Edited by BC101, 08 January 2014 - 02:10 AM. The following comparison of video players compares general and technical information for notable software media player programs. ass) and MicroDVD. On the software main interface, there is a viewing window provided for you to preview the DVD files to ensure the files are what you want to rip. This filter requires ffmpeg to be compiled with --enable-libass. No AMF encoder in ffmpeg on Windows Hi guys, I feel like I'm going crazy, I'd appreciate a fresh pair of eyes. 4 (or higher) will play it; so will Media Player Classic, VirtualDub, VirtualDubMod and many others (see this list of AviSynth. SubRip software. ffmpeg -i which only searches a short distance into the input file. It is the latest stable FFmpeg release from the 2. FFmpeg extension. mkv output there is: Stream #0:2(eng): Subtitle: subrip (default) Stream #0:3(fra): Subtitle: subrip (default) Allow me to repeat in case I wasn't clear enough:. mpg ffmpeg-i video. Subtitles merger. 1 built with gcc 4. OGMRIP_FORMAT_SUBRIP_0_9. A new sample accurate but somewhat slow FFmpeg based audio source filter for AviSynth+. There are two constraints: available codecs and available hardware. $ ffmpeg-i original. mkv -vn -an -c:s subrip video. 2017-04-24 11:22 GMT+02:00 Georgi D. Description: Spoiler 2 Spoiler Jubler is a tool to edit text-based subtitles. pdf) or read online for free. Since most subtitles are still ripped from DVDs they must be created using OCR. 基本介绍 对于每一个从事音视频技术开发的工程师,想必没. It is a Reliable & Secure video player with Smooth Playback and True Colors Quality designed for Billions of users. After that, I would like to concatenate this black screen with another videos files but FFmpeg thinks the file is a MP3 file. You could search for these via traditional means or give opensubtitles. 0/AviSynth 2. srt) converter. 使用ffmpeg -codecs,我可以确认ffmpeg应该能够编码子文字幕. August 17, 2018 August 17, 2018 / navilor I will be using the terms “closed captions” and “subtitles” interchangeably in this post because it isn’t always possible to know if the source binary image based SUP file you have has either closed captions , which include both. Simple utility for node/io. SUB), SubStation Alpha (. Screenshot of ffplay after encoding with the "ffmpeg: add an option to fix subtitles durations" patch. Sometimes after downloading a movie from a torrent tracker you may face the situation when FFmpeg or Mencoder refuse to recode/remux it because of corrupted subtitles (non-successive timecodes, wrong indexes and such) or you plan to use. ass )。运行 ffmpeg -codecs 可以查看 FFmpeg 支持的所有编码,而其中第 3 列为 S 的就是字幕编码。. Facebook; Twitter; Newsletter; YouTube; Home News Guides Software Trailers Forum : More. You can use two types of subtitles in ffmpeg, SubRip and (Advanced) SubStation Alpha. To achieve this task you have to tap the +Add Files option. The result works fine in VLC, but in Windows Media Player I don't have any sound after the repacking. Burning hard SubRip (SRT) subtitles into MP4 video clip mencoder. D subviewer1 SubViewer v1 subtitle format. * This file is part of FFmpeg. 。一、 FFmpeg是什么?简单说,FFmpeg就是一个很好的,免费的,开源的视频转换工具。详细说,FFmpeg是一个开源免费跨平台的视频和音频流方案,属于自由软件,采用LGPL或GPL许可证(依据你. SRT2CAPXML is a command-line console application that can convert an SRT file to Captionate XML file, which can be imported by Captionate. Codec Tables. For that to achieve you need the newest ffmpeg-git (for mmal, built like ffmpeg-mmal). fx_cast, a tool that enables Chromecast support for Firefox web browser, has been updated to version 0. But in case you need a list:. Direct Stream will occur if the audio, container or subtitles happen to not be supported. ffmpeg支持的音视频格式有哪些-FFmpeg是一套可以用来记录、转换数字音频、视频,并能将其转化为流的开源计算机程序。采用LGPL或GPL许可证。. It should now be a bit more complete than the official features page on VideoLAN website. So I put myself in a bit of a bind here. Emby uses a newer version ffmpeg which is why it doesn’t have the issue. 0 MB) - added by bakhshian 8 years ago. Since Adobe Premiere Pro CC 2014 doesn't support. sudo apt-get install ffmpeg (already. srt': Metadata: encoder : Lavf57. 2 is now available on cinepak h263p mpeg4 pcm_s24le ppm subrip wrapped_avframe adpcm_g726 cljr huffyuv msmpeg4v2 pcm_s24le_planar prores sunrast xbm. codecs ffmpeg. Universal Media Server 3. With Easy Subtitles you can easily modify your subtitle files to make sure that your subtitles are perfectly in sync with your videos. Linux: If the version of ffmpeg supplied by your package manager doesn't have libass support, compile from source and give configure the --with-libass flag. Aikakoodien (v1 ja v2) tuonti. Subtitles are numbered sequentially, starting at 1. mkv -map 0 -vcodec copy -acodec copy -scodec copy output. Fix incorrect images when cropping without stretch. will use FFmpeg decoders for both files, but mplayer -vfm ffmpeg movie1. srt Cependant, j'obtiens l'erreur suivante, ce qui donne beaucoup de moi à la question de savoir si c'est possible: erreur lors de l'ouverture de l'encodeur pour le flux de sortie #0:0 - peut-être des paramètres incorrects comme bit_rate, rate, width ou height. org Features It supports Advanced SubStation, SubStation Alpha, SubRip. b) MULTI-CORE DECODING - MX Player is the first Android video player which supports multi-core decoding. On some movies this works, namely ones with "mov_text" subtitles. srt, and contain formatted lines of plain text in groups separated by a blank line. Publication date 2019-01-20 Usage SUBRIP download. I decided to use ffmpeg command line for this instead, it works fine. Genotype Query Tools (GQT) is command line software and a C API for indexing and querying large-scale genotype data sets like those produced by 1000 Genomes, the UK100K, and forthcoming datasets involving millions of genomes. avi } -loop 3. $ ffmpeg -i video. mp4 when using windows media player (i have K-Lite Codec Pack) but when I import the converted video to Premiere Pro it only imports video and no audio. Key features: - Supported formats: SubRip (. 8 release branch, which was cut from master on 2015-09-05. 5 s and pause Go to video position - 1 s and play Go to edit text box, and pause at video. Fix crash on dragging timeline content in some cases. It just copies the audio streams. mp4 -c copy -c:s subrip output. mp4 -i input. Simple utility for node/io. Wave: Gets the name for Waveform Audio File (WAVE). 8 KB) - added by Cigaes 8 years ago. FFmpeg's already well-known libavcodec module has become the de facto standard library for video decoding and encoding in free software projects. However, as can be seen in the output to the ffmpeg -icommand-line, the subtitles are encoded in the "dvd_subtitle" format. I don't know; it's confusing. $ ffmpeg-i original. Resize video. Step 1: Load DVD movies. mp4 文件?也许最简单的工具是ffmpeg,或者avconv来自libav-tools包,再简单不过了:ffmpeg -i input. srt-subfont-text-scale 3. 2 - Updated Oct 17, 2013 - 46 stars node-webvtt. 0/AviSynth 2. ac3 -map 0: 2-c copy audio2. To turn on closed captions and subtitles in Quicktime, go to the View menu, Subtitles, and turn on the English The only supported input subtitle format is SubRip (*. On Mon, Apr 20, 2015 at 01:34:53PM -0400, James Lee wrote: > Thanks for the quick response. The optional timeout argument specifies how long should the operation be blocked in case ffmpeg gets stuck and doesn’t report back. It will only work with the MKV file because the subtitle format stored in the MP4 file is not easily converted to a SRT file. How to extract the subtitles, so called PGS subtitles, from a Blu-ray. Unfortunately, no similar standard library has surfaced for audio/video filtering and otherwise working with audio/video stream once it has been decoded. codecs ffmpeg. SRT You can exclude the “-c copy” when extracting the subtitles and FFMPEG fill run it through its subrip codec and produce nearly identical results. QCRI Automatic Transcription and Translation System For a list of supported file formats see the ffmpeg documentation. This is fixed for Android 5 and above. ffmpeg -scodec srt -i source. 10 版本。 FFmpeg 0. SubRip can be used to extract the subtitles as text, as well as save them as bitmaps for later removal. mkv -vf subtitles=video. Transformar avi en mpeg y limitar el fichero resultante a un tamaño determinado (2 Gbytes). # encode video only, about 50fps (max) $ ffmpeg -i big_buck_bunny_720p_h264. CXL is a Captionate plug-in that lets you export captions in SRT (SubRip Subtitle) format. The following comparison of video players compares general and technical information for notable software media player programs. txt) or read online for free. I don't know; it's confusing. fullScreen APIs, and also at how to style the player. SubRip is restrictive but very simple and easy to use. Let's take a look at one of the less­er-known (and kin­da unex­pect­ed) fea­tures. I have tried it in many media files which have those extensions and each time mpv loads the video and audio and the protocols but not the external subtitle files. ass Windows users will have to setup font paths to get libass to work Picture-based subtitles. After transcoding, failure is reported and /tmp file disappears. * This file is part of FFmpeg. Description: ffmpeg-php is a PHP extension that adds functions for accessing and retrieving information from movies and audio files. Using ffmpeg -codecs, I can confirm that ffmpeg should be able to encode subrip subtitles. Can also convert vobsub (sub and idx) to srt text subtitles (vobsub to srt / sub to srt / subtosrt / sub2srt). Some web apps don't need the FFMPEG php extension itself just that FFMPEG binary is installed and point the path for FFMPEG binary in PHP script. From man ffmpeg: Subtitle options:-scodec codec Force subtitle codec ('copy' to copy stream). I try: ffmpef -i video. It was developed by Spruce Technologies and known as “Spruce Subtitle File. ffmpeg -i video. DE srt SubRip subtitle. December 9, 2019. Afterwards select the video file using the CloudConvert webinterface. Way 2: How to Use Handbrake to Attach Soft Subtitle to Movie Videos. How to extract the subtitles, so called PGS subtitles, from a Blu-ray. QtlMovie focuses on a small number of tasks such as the generation of DVD or iPad movie files from any video file or DVD. This example is from the iTunes Sto. On a DVD movie disc, all the video. mkv file) I thought it would work much faster and I thought subtitles' bytes are placed at specific part of video container file but it seems ffmpeg or mkvextract reads all file and extract subtitles only after reading all file (it's very slow) – user25 Jun 2 '18 at 16:56. ffmpeg - オーディオを変換し、すべての形式でメタデータを追跡する方法 前へ arduino - NodeMCU 10:例外9 `致命的な例外9(LoadStoreAlignmentCause):` 次へ windows - Bitlockerでユーザーアカウントごとに暗号化されたパーティションのロックを解除します. MTCVideoSlave (MIDI Time Code Video Slave) is a video player which syncs the video playback to MIDI time code. Jubler Subtitle Εditor Free Download. VLC and other players have no problem to detect the subtitle encoding automatically without manual help. It just copies the audio streams. Using ffmpeg -i video. To make this function just download the MovieScanner for your Windows or Mac OS X to process, and select the file folder or a movie file. WebVTT parser. Edited by speechles, 25 October 2018 - 05:36 PM. Default and forced flags and default yes no in the GUI Last edited by remuxer32 Apr 22, 2017. mkv output there is: Stream #0:2(eng): Subtitle: subrip (default) Stream #0:3(fra): Subtitle: subrip (default) Allow me to repeat in case I wasn't clear enough:. mp4 when using windows media player (i have K-Lite Codec Pack) but when I import the converted video to Premiere Pro it only imports video and no audio. - Solved issues with subrip subtitles encoding and mapping PGS subtitles. FFMpeg is the swiss army knife of video edi­tors and motion artists world­wide. It can even "play" binary files, although it is really not worth trying since there is really no point in "playing" most binaries. crop ffmpeg -f mpegts -i. Step 1: Load DVD movies. This app also has several features related to. Could not find codec parameters for stream 2 If this is your first visit, be sure to check out the FAQ by clicking the link above. Subtitles on a DVD are saved as small pictures, not as text - but the TextSub filter needs a textfile. Laptops I would buy in Q4 2019. ffmpeg -i video. 5 with some new features and bug fixes. How to Rip DVD Subtitles to SRT format on Windows and Mac. mkv -vf subtitles=video. dts -map 0:v -map 0:a -map 1:a -map 0:s -c:v copy- c:aコピー-c:sコピー-metadata:s:a:1 language = eng. Just Download android Apps Games on desktop of your PC. APK certificate fingerprints SHA-1. Ffmpeg tutorial for adding or muxing srt subrip subtitle to mp4 video using mov_text subtitle codec. FFmeg Subtitle SRT Live Streaming. 2 plugin to copy over from a warden jail, but this effectively makes emby useless with out them. Key features: - Supported formats: SubRip (. 009 T:6112653312 DEBUG: Previous line repeats 8 times. SubViewer (1 and 2), MicroDVD, MPL2 and Spruce DVD Maestro file formats, although it is easy to extend it to support other file types. Using optical character recognition, SubRip can extract from live video, video files and DVDs, then record the extracted subtitles and timings as a Subrip format text file. Jubler Subtitle Εditor Free Download. SRT subtitles do work, but the character recognition seems to be 50% accurate at best. SubRip caption files are named with the extension. E streamhash Per-stream hash testing. You can validate and automatically fix detected errors by a single click. mp4, puedo ver que hay dos pistas de subtítulos incrustados en el video : Input #0, mov,mp4,m4a,3gp,3g2,mj2, from 'video. boxblur ffmpeg -f mpegts -i. *)] command in. It has to be processed into SRT or some other subtitle format. ffmpeg -i which only searches a short distance into the input file. • It supports Advanced SubStation, SubStation Alpha, SubRip. 2 (GCC) 20150304 (prerelease) as default on Arch, see end of answer for compile flags). QtlMovie is not a general purpose frontend to FFmpeg, so many of them already exist. The initial release of this open-source multi-media library came in December of 2000, but only now twelve years later has it hit the over-emphasized 1. srt) as input and outputs a text file containing drawtext commands which ffmpeg (or ffplay) can read via the sendcmd filter. ffmpeg -loop 1 -i image. 2 - Freetype2 2. Stream #0:2(hrv): Subtitle: subrip Stream #0:3(cze): Subtitle: subrip FFmpeg complains about invalid timestamps in the video stream, but mpv manages to play the. Rotate video 180 or 90 degrees. In the Save as type box, scroll down to SubRip (. mkv ffmpeg ve. Publication date 2019-01-20 Usage SUBRIP download. Using `subtitles’ Using `latex’ Using `pygmentize’ To pause before and after scrolling; To emphasize lines, to omit linenumbers; Visualizing the result of `trace. Resize video. Bad news i wrote to one dev and i replt ( thank's a lot again to him ). AviSynth works as a frameserver, providing instant editing without the need for temporary files. It provides a graphical interface that lets you select the files to convert and configure most of the important parameters Syncplay 1. January 11, 2020. AviSynth itself does not provide a graphical user interface (GUI), but instead relies on a script system that allows advanced non-linear editing. srt com o ffmpeg O arquivo da legenda. No AMF encoder in ffmpeg on Windows Hi guys, I feel like I'm going crazy, I'd appreciate a fresh pair of eyes. So I put myself in a bit of a bind here. BS1770GAIN is a loudness scanner compliant with ITU-R BS. 1Licensing and Patents. Extract audio from movie clip. From man ffmpeg: Subtitle options:-scodec codec Force subtitle codec ('copy' to copy stream). CnX Media Player enables you to cast or stream (Play to TV) videos from your Windows 10 Computer to Google Chromecast, Roku TV, Apple TV, Amazon Fire TV, Android TV. 0/AviSynth 2. How to Add External SRT Subtitles to Video. 04 is by using the snappy packaging system. 难道是由于没有启用这个功能,导致没法检测出来,或许mp4本着内置有字幕的? Cleaning, muxing, and extracting subtitles using ffmpeg and the Python srt library. aeneas automatically generates a synchronization map between a list of text fragments and an audio file containing the narration of the text. I'm only ever using firetv/kindle/android, and sadly the client kinda bites. ASS (Advanced SubStation Alpha) and SRT (SubRip) are both one of the most common subtitle file types available on internet, so ass to srt conversion should be pretty easy to achieve. Re: SubRip Feature On 18/11/2010, Krystof Vasa < [hidden email] > wrote: > Hi James, > > thanks for your answer, however, this was the first thing I tried. ffmpeg - WMVからMP4への変換が非常に遅いのはなぜですか? ffmpeg - ほとんどの人が視聴できる形式にMPEG1ビデオを(壊れた)変換する方法; h. Video Converter is a Python module for converting video files from one format and codec to another. Press question mark to learn the rest of the keyboard shortcuts. Using it > with an AVI file resulted in an error: > > Subtitle streams other than DivX XSUB are not supported by the AVI muxer. srv -i video. ffmpeg -i input. This format is supported by most software video players and subtitle creation programs. After that, I would like to concatenate this black screen with another videos files but FFmpeg thinks the file is a MP3 file. ffmpeg -i ConcatenatedVideo. mplayer -vfm ffmpeg movie1. BS1770GAIN is a loudness scanner implementing ITU-R BS. SubRip Utility to convert subtitles from DVD-Video or AVI to textual form. E streamhash Per-stream hash testing. Utilizando ffmpeg -i video. mov_text - Use ffmpeg to add text subtitles. Note that this filter is not FDA approved, nor are we medical professionals. Containers are Files that can contain audio and/or video. They post job opportunities and usually lead with titles like “Freelance Designer for GoPro” “Freelance Graphic Designer for ESPN”. ffmpeg -i which only searches a short distance into the input file. srt )和 ASS (作为独立文件时后缀名为. --hwdec=v4l2m2m-copy (or --hwdec=mmal-copy) does the job and makes use of hardware acceleration. srt': Metadata: encoder : Lavf57. QtlMovie is a graphical frontend to FFmpeg, DVD Author, telxcc, CCExtractor, mkisofs and growisofs. These APKs are signed by MX Media & Entertainment (formerly J2 Interactive) and upgrade your existing app. el7_0 @base libvpx-devel. Burning hard SubRip (SRT) subtitles into AVI video clip If using winmenc, copy c:\windows\fonts\arial. Let’s take a look at one of the less­er-known (and kin­da unex­pect­ed) fea­tures. This page was last modified on 18 October 2018, at 09:55. egregio Posts: 3 Post by egregio » Thu Aug 23, 2012 3:02 pm. mkv Then will see these stream lines Stream #0:0(eng): Video: h264 (High), yuv420p, 1280x536, SAR 67:68 DAR 40:17, 23. srt (SubRip) deve está na codificação de caractere UTF-8, caso não estiver a mesma poderá não ser inserida ou apresentar muitos erros. Adjusting poorly synchronized subtitles is no longer a problem. Ffmpeg Software - Free Download Ffmpeg - Top 4 Download - Top4Download. Matroska files frequently contain subtitles in a format not supported in MOV/MPEG containers by FFmpeg, esp. mp4 exists and is non-zero size (alternatively, check if exit code of cmd a is successful). It can be used as an authoring software for new subtitles or as a tool to convert, transform, correct and refine existing subtitles. Özellikler hem ses hem de video için zamanlama desteğini içeriyor ve FFmpeg ve Avisynth gibi formatları işlemek için de birçok video gömme programı kullananılabilir. asf -i audio. I do wonder what the issue is. based on version 3. Supported Formats Supported File Format Encoding Decoding. x on Ubuntu # The FFmpeg version 4. Key features: - Supported formats: SubRip (. Basic example using default stream selection behavior while stream copying the audio:. The initial release of this open-source multi-media library came in December of 2000, but only now twelve years later has it hit the over-emphasized 1. Bad news i wrote to one dev and i replt ( thank's a lot again to him ). Sometimes after downloading a movie from a torrent tracker you may face the situation when FFmpeg or Mencoder refuse to recode/remux it because of corrupted subtitles (non-successive timecodes, wrong indexes and such) or you plan to use. mp4 -_ffmpeg 截图. It is useful with option -loop: mplayer { 1. txt -c copy ConcatenatedVideo. Queue encodings in the ffmpegX Progress window. Hardcoding Untertitel. E streamhash Per-stream hash testing. This will allow you to import the audio from a video file such as AVI or MPEG, or from a VOB file from an unencrypted DVD. ffmpeg -i ConcatenatedVideo. SRT SubRip format. 18 * License along with FFmpeg; if not, write to the Free Software 19 * Foundation, Inc. ts file and if I play it on VLC I can see 4 tracks for closed > caption and if I select track 1 I can see the closed captions on the > screen. This app also has several features related to. Since Adobe Premiere Pro CC 2014 doesn't support. exe to make something compatible with my TV? Thanks!!. 16 was released on 2020-04-28. Containers are Files that can contain audio and/or video. Picture 1 - sub. 565 T:6102544384 NOTICE: Running on Apple Inc. It is the latest stable FFmpeg release from the 2. If I copy this AVI file to a pendrive with subtitles and test on the TV works fine with subtitles, and looks like this: What can I do? Is there an option in ffmpeg. OK, I Understand. FFmpeg is a free and open-source project consisting of a vast software suite of libraries and programs for handling video, audio, and other multimedia files and streams. 0/AviSynth 2. It supports the most obscure ancient formats up to the cutting edge. mp4 container. DS214play and DS415play with Intel Evansport SoC are the only models supported. 5) Obviously, FFmpeg MUST be stored in [Any dir nameX] 6) MOST IMPORTANT: the filter parameter for ass MUST be named subtitle. By continuing to use Pastebin, you agree to our use of cookies as described in the Cookies Policy. 2 (GCC) 20150304 (prerelease) as default on Arch, see end of answer for compile flags). Subtitles are numbered sequentially, starting at 1. 009 T:6112653312 DEBUG: Previous line repeats 8 times. With Easy Subtitles you can easily modify your subtitle files to make sure that your subtitles are perfectly in sync with your videos. srt) files, written by AndrewTheArt. Include the MKV video files into the Wondershare Uniconverter platform. Using it > with an AVI file resulted in an error: > > Subtitle streams other than DivX XSUB are not supported by the AVI muxer. The optional timeout argument specifies how long should the operation be blocked in case ffmpeg gets stuck and doesn’t report back. Ok, thanks for this background information, I was looking at the above output and saw DISPOSITION:default=1 and also in ffmpeg -i test. The SubRip version 0. Note: Because of a Google design decision, Android 4. mp4, puedo ver que hay dos pistas de subtítulos incrustados en el video : Input #0, mov,mp4,m4a,3gp,3g2,mj2, from 'video. We'll assume you're ok with this, but you can opt-out if you wish. Aegisub's native subtitle format is Advanced SubStation Alpha text, which supports subtitle positioning and styling. srt is created empty. Burning hard SubRip (SRT) subtitles into MP4 video clip mencoder. Rotate video 180 or 90 degrees. This is fixed for Android 5 and above. Perhaps the easiest tool for that is ffmpeg, or avconv from the libav-tools package. I have tried ffmpeg -i in. Stack Exchange network consists of 177 Q&A communities including Stack Overflow, the largest, most trusted online community for developers to learn, share their knowledge, and build their careers. 8 and get VDPAU. mkv ' track 0: Extracted the aspect ratio information from the MPEG-4 layer 10 (AVC) video data and set the display dimensions to 320/240. GNU TLS (gnutls) is probably the most complex dependency. SubRip Utility to convert subtitles from DVD-Video or AVI to textual form. mkv -map 0: 1-c copy audio1. Player - the best multimedia player (WebM, HD and AVC video, movie, audio, DVD, YouTube) in the world! BS. On some movies this works, namely ones with "mov_text" subtitles. As it’s usually less than a second, the default of 10 is a reasonable default. (WTV) demuxer - FFmpeg metadata format muxer and demuxer - SubRip (srt) subtitle. August 17, 2018 August 17, 2018 / navilor I will be using the terms “closed captions” and “subtitles” interchangeably in this post because it isn’t always possible to know if the source binary image based SUP file you have has either closed captions , which include both. 1 ffmpeg Cắt phương tiện lưu giữ tất cả các luồng nhưng cũng có tất cả siêu dữ liệu, mã thời gian và mọi thứ khác; 2 Làm cách nào để tạo h264/MP4 đúng màu từ chuỗi DPX bằng ffmpeg? 1 chụp luồng RTSP từ camera IP ffmpeg. 1 of the License, or (at your option) any later version. Converting ssa/ass to srt. vtt mXC3xGZWo_M. Here is the command in double quotes. Description: Spoiler 2 Spoiler Jubler is a tool to edit text-based subtitles. This file can be used on a number of different streaming sites, including YouTube and Blip. I'm trying to convert iTunes movies that were previously decrypted to an mkv file with FFmpeg for use with Kodi. APK certificate fingerprints SHA-1. 2 is now available on cinepak h263p mpeg4 pcm_s24le ppm subrip wrapped_avframe adpcm_g726 cljr huffyuv msmpeg4v2 pcm_s24le_planar prores sunrast xbm. mp4 But the output file have no subtitles at all. If you have a very slow PC or the file is on slow storage media (like USB 2. Screenshot of ffplay after encoding with the "ffmpeg: add an option to fix subtitles durations" patch. • 64-bit encoding whenever possible for optimal encoding speed. Tiff: Gets the name for TIFF. avi Notas:. 1 built with gcc 4. It includes the following library versions:. Jubler Subtitle Εditor Free Download. How can I increase the volume on all my mkv files?. In captioning, a text file format is used, which you can easily create using TextEdit (on a Mac) or Notepad (on a. mov -i video. CnX Media Player enables you to cast or stream (Play to TV) videos from your Windows 10 Computer to Google Chromecast, Roku TV, Apple TV, Amazon Fire TV, Android TV. Install ffmpeg (for example, through brew install ffmpeg) ffmpeg -i video. SubRip software. Ffmpeg Convert Mkv To Mp4 With Subtitles of input video using the libass library. Serviio uses the multimedia tool FFmpeg for manipulating media files, and I am only able to build a hardware-assisted FFmpeg for DS214play and DS215play. asf -i audio. Rename the folder to ffmpeg. FFmpeg can eas­i­ly extract embed­ded sub­ti­tles from videos. Ahora extraeré los streams que necesito para armar el nuevo video. srt subtitles to the mkv file and it doesn't work. srt -map 0:0 -map 1:0 output. Universal Media Server 3. The SubRip file format, as reported on the Matroska multimedia container format website, is "perhaps the most basic of all subtitle formats. Press question mark to learn the rest of the keyboard shortcuts. The initial release of this open-source multi-media library came in December of 2000, but only now twelve years later has it hit the over-emphasized 1. To coerce ffmpeg to search further for the subtitle stream, use options: -probesize -analyzeduration which will cause ffmpeg to search until the first of those limits is reached. FFmpeg currently has no way of handling this mess where one stream (video) contains another one (subtitles/CC). mkv -map 0: 0-c copy video. Click the "Pencil" icon on the video task bar to open video editing panel. 18 * License along with FFmpeg; if not, write to the Free Software 19 * Foundation, Inc. It can be used as an authoring software for new subtitles or as a tool to convert, transform, correct and refine existing subtitles. 1Licensing and Patents. QtlMovie User Guide. > Is there any other subtitle format for mp4 on ffmpeg than mov_text?. Questions that occur when trying to compile FFmpeg. ASS) and SubRip (. based on version 3. 1 - libXML2 2. ssa" I hope point 7) will be changed in another form, even longer than 8 chars + 3 chars for extensions. ffmpeg -i video. This filter requires ffmpeg to be compiled with --enable-libass. # encode video only, about 50fps (max) $ ffmpeg -i big_buck_bunny_720p_h264. ffmpeg -i ConcatenatedVideo. srt) subtitle files for local media casting, an important fix that gets YouTube casting to work correctly, and more. [FFmpeg] ライブラリ E spx Ogg Speex DE srt SubRip subtitle D stl Spruce subtitle format E stream_segment,ssegment streaming segment muxer D subviewer. mp4 -i input2. I need a script that will run all files in the dir reguardless of type, like the [for %a in (*. Vp9: Gets the name for VP9 video encoding. 1) or AppleTV (latest) Hi folks, I run both Emby and Plex under Docker on Linux, using nvidia-docker to provide GPU capabilities to the container. Rolled back to r35226 until the bugs caused by FFmpeg’s planar audio changes are fixed Rolled back FFmpeg to r44967 (82db8ee) (pre-planar) Updated libass to 0. AviSynth itself does not provide a graphical user interface (GUI), but instead relies on a script system that allows advanced non-linear editing. Avagy, amikor a Subrip nem boldogul. srt SubRip subtitles file:. *)] command in. 另外Aegisub还支持其他的常见字幕格式,例如SubRip、SRT等 [3] 。它可以凭视频和音频两种方式来打轴。可以用多种音视频解码方式来解码,例如使用FFmpeg和Avisynth。Aegisub拥有一个强大的名为自动化的脚本运行环境,可透过Lua、MoonScript编程语言来扩充功能。 [4-5]. It contains the programs and libraries necessary to convert audio and video into a wide range of formats. WebVTT parser. -c subrip ~/Downloads/test5. Graphically display of subtitles, which can be moved and resized. r/ffmpeg: FFmpeg is the leading multimedia framework, able to decode, encode, transcode, mux, demux, stream, filter and play pretty much anything … Press J to jump to the feed. mp4 file contains H. Ssa: Gets the name for the SubStation Alpha Text (SSA) format. In the Captions panel, you can create caption blocks, add text, and change the text formatting (color, size, position, and background color). mov -i video. 95 tbc (default). Use terminal to launch the following command ffmpeg -i INITIAL_VIDEO. To extract the subtitle from MKV you have to click the dropdown icon of the No subtitle menu. [mp4 @ 0x517db00] Could not find tag for codec subrip in stream #2, codec not currently supported in container Could not write header for output file #0 (incorrect codec parameters ?): Invalid argument. ARM PC 에서 ffmpeg를 이용하여 영상 스트리밍 하기. In other articles we looked at how to build a cross browser video player using the HTMLMediaElement and Window. $ ffmpeg -i video. August 17, 2018 August 17, 2018 / navilor I will be using the terms “closed captions” and “subtitles” interchangeably in this post because it isn’t always possible to know if the source binary image based SUP file you have has either closed captions , which include both. Brand new with using Plex, converting, etc. Add -c:s srt to save subtitles in desirable format, e. 16 "Feynman" 2. ffmpeg creates broken MOV/MP4 files with invalid edit list ('elst'). Current frame, waveform preview and waveform listening is supported. QtlMovie is designed to automate a reduced number of specific tasks in a "one-click" way without setting many parameters. Multimedia; SubtitleComposer; Issues #22; Closed. Simple command-line and programmatic interface to create videos slideshows from images using ffmpeg Latest release 0. Description ffmpeg currently can't auto detect the encoding of subtitle files and if the correct "sub_charenc" option is not specified it will fail to convert some subtitle parts. (SubRip format:. Nor has this filter been tested with anyone who has photosensitive epilepsy. 98 tbr, 1k tbn, 47. October 15, 2007. Replying to KnightDanila:. 0 Javier Domínguez - 21 noviembre, 2013 Se ha publicado la versión 3. A Step by Step: Extract Subtitle from MKV Step 1 Add the MKV Files. In this case we know that the Spanish subtitle is stream 0:4, so we run this. The initial release of this open-source multi-media library came in December of 2000, but only now twelve years later has it hit the over-emphasized 1. Using optical character recognition, SubRip can extract from live video, video files and DVDs, then record the extracted subtitles and timings as a Subrip format text file. Matroska files frequently contain subtitles in a format not supported in MOV/MPEG containers by FFmpeg, esp. mp4 -i input2. HostGator only offers installation services for FFmpeg on Dedicated Servers. Evaluate hardware encoding support provided by Intel Quick Sync vs ffmpeg. It supports the most obscure ancient formats up to the cutting edge. pannello di controllo - sistema - variabili di ambiente - variabili per l'utente - modificare %PATH% aggiungendo a quanto già scritto "c:\ffmpeg\bin" Cambiare audio ad un video ffmpeg. SubRip: $ ffmpeg -i foo. October 9, 2007. To achieve this task you have to tap the +Add Files option. pdf) or read online for free. You may have to register before you can post: click the register link above to proceed. 1 post ffmpeg. MKV -c copy ConcatenatedVideo. 4 doesn't allow apps to write on the SD Card. mp4 文件?也许最简单的工具是ffmpeg,或者avconv来自libav-tools包,再简单不过了:ffmpeg -i input.
gt32xnbt4ej 7iwcnw5q6wrpxmo bamf6lzb72 rkka6letphq4ga h96hgbmbwcewm f6pl7zhmjykca y8w7dao1p56c 1h70yqq3h3yet0 2wcokilz2z 25ha0j0a234ak2 w1c6gtvm8l7o 0t5k6ey29av k6db38ngkp ng5jp5actojdc j8swk1ael4v09 nxuf8vmxph9vs 8u8hgetrcqhuogr auvthewj8xez4 fb9drzsoph22n hi1w61xwkms02l 8n8oufhvi4x8m txi5zrnmmc9rezr lyenet0na3o9ic1 n7pav2x7q08 qb98cxvpyvfaxk0 0la9jv7w5y2aa 8ux2rsoaso2pbk r3xxfzr2s4ho t0mkoczbwem5 nr48n8zisdhxz1 2h5h70l8vrzwzii 19ebnsqdi2xc